Tutorials :

Brain Page - BNB Formula

      Author: Delcan   |   23 November 2020   |   comments: 0

Brain Page - BNB Formula
Brain Page - BNB Formula
WEBRip | English | MP4 + PDF Guides | 1280 x 720 | AVC ~1299 Kbps | 30 fps
AAC | 108 Kbps | 44.1 KHz | 2 channels | ~20 hours | 10.6 GB
Genre: eLearning / Business, Sales, Marketing


BNB Formula for Those Want to Learn How to Leverage AirBNB even if You don't Own A properties Learn the ultimate tool for analyzing any property in your particular area. This is information you can not get on Airbnb.

HOw To Dramatically improve the TITLE, DESCRIPTIONS, AND SETTINGS of your listing for more "punch".?
Determine if your PHOTOS may be limiting your earnings and how to radically improve them.

Look at your CALENDAR to see where it's possible to pump up your bookings..and much more.

Essentially you'll get to see me look at student listings and help improve them in order to increase their potential earnings. in real time.

Content:

01-INTRODUCTION
02-Module 1 PREP
03-Module 2 PARTNER
04-Module 3 LOCATE
05-Module 4 STAGE
06-Module 5 LIST
07-Module 6 LAUNCH
08-Module 7 AUTOMATE
09-Module 8 RINSE & REPEAT
10-DONE FOR YOU CHECKLISTS
11-DONE FOR YOU TEMPLATES
12-MORE TOOLS and PROFIT CALCULATOR
13-COACHING CALL VAULT
14-BONUS BNB BACKSTAGE TRAINING
15-BONUS LISTING BOOST BOOTCAMP
16-BONUS BNB ROCKSTARS


MediaInfo:
General
Complete name : 06-All About Entities.mp4
Format : MPEG-4
Format profile : Base Media
Codec ID : isom (isom/iso2/avc1/mp41)
File size : 63.9 MiB
Duration : 6 min 19 s
Overall bit rate mode : Variable
Overall bit rate : 1 412 kb/s
Season : 0
Movie name : 06-All About Entities
Part : 0


Video
ID : 1
Format : AVC
Format/Info : Advanced Video Codec
Format profile : [email protected]
Format settings : 1 Ref Frames
Format settings, CABAC : No
Format settings, RefFrames : 1 frame
Format settings, GOP : M=1, N=12
Codec ID : avc1
Codec ID/Info : Advanced Video Coding
Duration : 6 min 19 s
Bit rate : 1 299 kb/s
Width : 1 280 pixels
Height : 720 pixels
Display aspect ratio : 16:9
Frame rate mode : Constant
Frame rate : 30.000 FPS
Color space : YUV
Chroma subsampling : 4:2:0
Bit depth : 8 bits
Scan type : Progressive
Bits/(Pixel*Frame) : 0.047
Stream size : 58.8 MiB (92%)
Encoded date : UTC 2018-02-19 23:13:27
Tagged date : UTC 2018-02-19 23:13:27
Menus : 3

Audio
ID : 2
Format : AAC
Format/Info : Advanced Audio Codec
Format profile : LC
Codec ID : mp4a-40-2
Duration : 6 min 19 s
Bit rate mode : Variable
Bit rate : 108 kb/s
Maximum bit rate : 155 kb/s
Channel(s) : 2 channels
Channel positions : Front: L R
Sampling rate : 44.1 kHz
Frame rate : 43.066 FPS (1024 SPF)
Compression mode : Lossy
Stream size : 4.90 MiB (8%)
Encoded date : UTC 2018-02-19 23:13:27
Tagged date : UTC 2018-02-19 23:13:27

Menu
ID : 3
Codec ID : text
Duration : 6 min 19 s
Encoded date : UTC 2018-02-21 10:23:52
Tagged date : UTC 2018-02-21 10:23:52
Menu For : 1
00:00:00.000 : Chapter 1


https://www.bnbformula.com/




PLEASE SUPPORT ME BY CLICK ONE OF MY LINKS IF YOU WANT BUYING OR EXTENDING YOUR ACCOUNT
http://nitroflare.com/view/31B7F56AF4EB29A/Brain-page-BNB-Formula.part01.rar
http://nitroflare.com/view/BA658A52DB1DA38/Brain-page-BNB-Formula.part02.rar
http://nitroflare.com/view/5407D8A40B7B639/Brain-page-BNB-Formula.part03.rar
http://nitroflare.com/view/B38355015240128/Brain-page-BNB-Formula.part04.rar
http://nitroflare.com/view/BCEC8A73A40F950/Brain-page-BNB-Formula.part05.rar
http://nitroflare.com/view/18B5883B9E36DC3/Brain-page-BNB-Formula.part06.rar
http://nitroflare.com/view/7637BAEC1B1431F/Brain-page-BNB-Formula.part07.rar
http://nitroflare.com/view/A2BCF9B66440FF3/Brain-page-BNB-Formula.part08.rar
http://nitroflare.com/view/0F396F38EACDA76/Brain-page-BNB-Formula.part09.rar
http://nitroflare.com/view/F57CA51DA47EA79/Brain-page-BNB-Formula.part10.rar
http://nitroflare.com/view/9CA344E1EB5E8D0/Brain-page-BNB-Formula.part11.rar

https://rapidgator.net/file/7fb6bc8ee9cc8c811568f2d996490710/Brain-page-BNB-Formula.part01.rar.html
https://rapidgator.net/file/eae6523219f84329bd5d60f5dbaed47d/Brain-page-BNB-Formula.part02.rar.html
https://rapidgator.net/file/274de9e62ef5419fbfba5f8f0d611911/Brain-page-BNB-Formula.part03.rar.html
https://rapidgator.net/file/74a413a0cff869b8416374e5ccd2587f/Brain-page-BNB-Formula.part04.rar.html
https://rapidgator.net/file/28c5cbe2ca058a164a4f0e6d591d32ab/Brain-page-BNB-Formula.part05.rar.html
https://rapidgator.net/file/db8ad94487a1d58a3728528bff639bdd/Brain-page-BNB-Formula.part06.rar.html
https://rapidgator.net/file/6f2865612e529f2c76df56bcffc468ec/Brain-page-BNB-Formula.part07.rar.html
https://rapidgator.net/file/c62f2d60c787fcb045b7e24879c93cfa/Brain-page-BNB-Formula.part08.rar.html
https://rapidgator.net/file/4d8fb9edcd49542dbc0588e81ab7224f/Brain-page-BNB-Formula.part09.rar.html
https://rapidgator.net/file/255640fed0917851d0ff57f43c31dabe/Brain-page-BNB-Formula.part10.rar.html
https://rapidgator.net/file/6f024cf1a11999da5a820f57a28746fb/Brain-page-BNB-Formula.part11.rar.html

https://uploadgig.com/file/download/B19cE903242C857E/Brain-page-BNB-Formula.part01.rar
https://uploadgig.com/file/download/1bb243e5F8d7c6Bb/Brain-page-BNB-Formula.part02.rar
https://uploadgig.com/file/download/aACa0d8C6b6A003e/Brain-page-BNB-Formula.part03.rar
https://uploadgig.com/file/download/bb000d0db4f7Ff54/Brain-page-BNB-Formula.part04.rar
https://uploadgig.com/file/download/e6d28Cf5e21b0995/Brain-page-BNB-Formula.part05.rar
https://uploadgig.com/file/download/903a4e979292bb31/Brain-page-BNB-Formula.part06.rar
https://uploadgig.com/file/download/45858460405728eF/Brain-page-BNB-Formula.part07.rar
https://uploadgig.com/file/download/855fc6c45cddb3e0/Brain-page-BNB-Formula.part08.rar
https://uploadgig.com/file/download/E4aa7987969Bb88C/Brain-page-BNB-Formula.part09.rar
https://uploadgig.com/file/download/3D422f3b6AD2f373/Brain-page-BNB-Formula.part10.rar
https://uploadgig.com/file/download/af98c1538E888384/Brain-page-BNB-Formula.part11.rar

https://icerbox.com/OxooL0ag/Brain-page-BNB-Formula.part01.rar
https://icerbox.com/n2YYz0RO/Brain-page-BNB-Formula.part02.rar
https://icerbox.com/g3QQBGqn/Brain-page-BNB-Formula.part03.rar
https://icerbox.com/nw77EM5n/Brain-page-BNB-Formula.part04.rar
https://icerbox.com/gDPP4x5g/Brain-page-BNB-Formula.part05.rar
https://icerbox.com/g7kkBK7g/Brain-page-BNB-Formula.part06.rar
https://icerbox.com/OBvvxNrO/Brain-page-BNB-Formula.part07.rar
https://icerbox.com/lz00KEMO/Brain-page-BNB-Formula.part08.rar
https://icerbox.com/leDDGNBn/Brain-page-BNB-Formula.part09.rar
https://icerbox.com/nRqqx8VO/Brain-page-BNB-Formula.part10.rar
https://icerbox.com/n488BEvn/Brain-page-BNB-Formula.part11.rar




Home        |        Register        |        Forums        |        RSS        |        Rules        |        DMCA Policy        |        Contact Us
DISCLAIMER
None of the files shown here are hosted or transmitted by this server. The links are provided solely by this site's users. The administrator of this site (dl4all.ws) cannot be held responsible for what its users post, or any other actions of its users. You may not use this site to distribute or download any material when you do not have the legal rights to do so. It is your own responsibility to adhere to these terms.

Copyright © 2018 Dl4All. All rights reserved.